Yes Roundabout Flac

Forbidden Fruit 5. Yes - Owner Of A Lonely Heart (multitracks) (flac) Yes - Roundabout (Jammit) Yes - Siberian Khatru (Jammit Stems) Yes - South Side of the Sky (Jammit) Yes - Starship Trooper (Jammit Stems) Yes - The Fish (Schindleria Praematurus) [Jammit] Yes - We Have Heaven (Jammit) Yes - Yours Is No Disgrace (Jammit Stems). 71 GB 1 Roundabout 8:36 2 Cans And Brahms (Extracts From Brahms' 4th Symphony In E Minor, Third Movement) 1:42 3 We Have Heaven 1:39 4 South Side Of The Sky 7:58 5 Five Per Cent For Nothing 0:37 6 Long Distance Runaround 3:30 7 The Fish (Schindleria Praematurus. Santana - Oye Como Va 36. Disc 01 - Yes (1969) 01. In a Word: Yes (1969-). Each album features remixed audio by renowned producer Steven Wilson. 04 I've Seen All Good People. 37) Yes Cobo Hall Detroit, Michigan 1974-02-28 "Alive and Kicking" 35th Anniversary Edition. Yes - Fragile (1971)Artist: Yes Album: Fragile Label: Atlantic. flac 04 I've Seen All Good People. It remains. Searching → Yes Roundabout mp3. Ro Yes - Fragile. -Roundabout. com - Available in 48 kHz / 24-bit AIFF, FLAC audio formats,. Fragile was Yes’ breakthrough album, propelling them in a matter of weeks from a cult act to an international phenomenon; not coincidentally, it also marked the point where all of the elements of the music (and more) that would define their success for more than a decade fell into place fully formed. Exact Audio Copy V1. 3 contributors total, last edit on Nov 10, 2019. 6 External links. 33 Gb Tracklist: CD1: The Yes Album 01. Nahrávejte, sdílejte a stahujte zdarma. -And You And I 10. Preview, buy and download high-quality music downloads of 90125 by Yes from 7digital Canada - We have over 30 million high quality tracks in our store. And You And I 11:59 06. 2 Live albums. Source: AKGck1”s” -> Naiant colettes/active cable > Naiant Tinybox 2. 717,250 views, added to favorites 4,436 times. Yes – Fragile (1971) [Japanese SACD 2013] PS3 Rip | SACD ISO | DSD64 > 1-bit/2. Yes - Changes. Yes Symphonic Live 2009 Eagle. flac dethalbum: dethklok-awaken. And You And I (A. 78:1 # Number of discs: 2 # Studio: Eagle Rock Ent # DVD Release Date: November 25, 2003 # Run Time: 157 minutes. It’s All About A Roundabout 02:45 07. Yes - The Steven Wilson Remixes (2018) [FLAC 24bit/96kHz] Yes featuring Anderson, Rabin, Wakeman - Live At The Apollo (2018) [FLAC 24bit/48kHz] Yes - Fly From Here: Return Trip (2018) [PledgeMusic FLAC 24bit/44,1kHz] Yes - Topographic Drama - Live Across America (2017) [FLAC 24bit/44,1kHz]. -Time And A Word 02. Into The Future 1999 Return To The Centre Of The Earth 1999 White Rock II 1998 The Best Of Rick Wakeman 1998 Themes 1998 Master Series 1998 Cirque Surreal. Lot reference 22528883. City of Love 6:47 03. Download YES - Fragile (1971) {2019, MFSL, Remastered, CD-Quality + Hi-Res Vinyl Rip} 2x Vinyl Rip | Hi-Res / FLAC Tracks / 24bit / 192kHz | CD-Quality / FLAC Lossless Music Archives Don't leave false ilusions behind. Yes - I've Seen All Good People. YES-Discography. Watch and download. Catalog #: 8122796496 Style: Progressive Rock Year: 2013 Format: FLAC. Yes - Wembley 29 June 1991 FLAC GENRE: Prog Rock FORMAT: Lossless (Flac) 5 And You And I 6 Changes 7 I've Seen All Good People 8 Lift Me Up 9 Roundabout THE BAND Jon Anderson Vocals Bill Bruford Drums Steve Howe Guitars Tony Kaye Keyboards The 4th Gig (1975)FLAC; Yes - Going Around (1979. Yes - The Ultimate Yes (2004) [FLAC] (3 CDs Box Set, 35th Anniversary Collection, Elektra, Rhino Records, R2 78042) Date: 2004-01-27 | Label: Elektra, Rhino Re. Roundabout (Time And A Word1972 from single ?Roundabout?) 03:29 04. flac: 26 MB: 36. Direct download via HTTP available as well. And You And I 11:59 06. Yes - Mood For a Day 09. 78:1 # Number of discs: 2 # Studio: Eagle Rock Ent # DVD Release Date: November 25, 2003 # Run Time: 157 minutes. >USB> PC> GoldWave v5. Album Roundabout (Live) Umělec Yes Ke stažení ve formátu MP3 a FLAC Obsahuje hit ♫ Roundabout Ukázky zdarma k poslechu Roundabout (Live) (FLAC) - Yes - Supraphonline. Going For The One 5:30 03. Originally released as a single LP with a bonus 7-inch 33 1/3 RPM disc featuring live versions of "Roundabout" and "I've Seen All Good People" from 1978, everything has been. / Yes – 50 Live 2019 MP3 320kbps CBR and FLAC 24-bit Hi-Res Lossless. -America (Single Edit) 11. 2016-07-16T02:13:04Z Comment by funny2009. Far and away the longest lasting and the most successful of the '70s progressive rock groups, Yes proved to be one of the lingering success stories from that musical genre. 96 (track split)> TLH> Flac (6) Taper: Ringfedder ~~~~~ Setlist: 01. Year Of Release: 2013 Genre: Rock Format: DSD, ISO image Bitrate: lossless Audio Channels: 2. Credit allows you to download with unlimited speed. Stephen James Howe (born 8 April 1947) is an English musician, songwriter and producer, best known as the guitarist in the progressive rock band Yes across three stints since 1970. 0 % Test CRC D7515BE6 Copy CRC D7515BE6 Copy OK Track 4. Madrigal (2:53)05. And You And I (A. Téléchargements MP3 haute qualité de Yes depuis 7digital France. The auction you are viewing has now ended. 3 MB 05 - Five Per Cent For Nothing. flac 61 MB; Yes - Yessongs [SHM. 01 MB) Yes - Heart of the Sunrise (Oakland 1978) - 10:56 (903 kbps , 70. Roundabout (2003 Remaster) · Yes. captured live on the 'Relayer' tour with Patrick Moraz on keyboards. Download FLAC Yes - Fragile 1971 lossless CD, MP3. flac 41 MB Yes - 2019 - Yes 50 Live [Hi-Res]12 Roundabout. 1 kHz (Tracks) Artist: Yes Title: Yes 50 Live Released:. The performance is second to none. 2 KB) Yes - Fragile. 85 MB 02-Yes-Fragile (MFSL Gold) Yes-Close To The Edge (MFSL). Full ZIP and RAR archives. Yessongs is the first live album from the English progressive rock band Yes, released on Atlantic Records. 52 Mb Yes - Fragile 1971/03. 05 - Roundabout Steve Howe - guitars Chris Squire - bass Alan White - percussion Trevor Horn - vocals Geoff Downes - keyboards DOWNLOAD: (links in comments) (PASSWORD = ra) POST INFO NOTES FROM TWO OFFICIAL "BLIND" B80 PROJECT TEST GROUP LISTENERS "What a treat it is to listen to this lovingly mastered recording of the Yes DRAMA lineup live. Just start the recording and leave it alone. attachment=6709 Yes 2019 Great Britain FLAC 13 01:41:09 1. 1971a - The Yes Album [MFSL 24k Gold UDCD 779 FLAC] 01 - Yours Is No Disgrace. 38 mb Yes - Fragile [ remastered 2 Bonus Tracks] (2003) [320] vtwin88cube File Size : 144. 08 Owner of a Lonely Heart. Heart Of The Sunrise 11:3304. Preview, buy and download high-quality MP3 downloads of Fragile by Yes from zdigital Australia - We have over 19 million high quality tracks in our store. Yes - We Have Heaven 04. Sources: copies of audience recording -> Sound Forge -> FLAC. Roundabout. Yes - In The Present - Live From Lyon - Disc 1. 0 (converted with foobar2000 to tracks) 24bit/88,2 kHz | Scans included | 16,45 GB High Vibration is a limited edition 16 SACD box set, featuring the 13 albums released by English prog rock supergroup Yes, between 1968 and. Preview, buy and download high-quality music downloads of 90125 by Yes from 7digital Canada - We have over 30 million high quality tracks in our store. Yes are an English progressive rock band that formed in London in 1968. Year Of Release: 2013 Genre: Rock Format: DSD, ISO image Bitrate: lossless Audio Channels: 2. After seven years a nearly complete different YES-group returned to the glorious Westfalenhalle - on their 90125-tour. YES 50 LIVE features 13 live performances of key songs that helped make Yes the most enduring, ambitious, and virtuosic progressive band in rock history. Welcome to Juno Download, a digital download store that boasts a staggeringly wide selection of songs, instrumentals and tools for DJs, electronic musicians and listeners alike. Fleetwood Mac - Dreams (2004 Remaster) 003. Yes had already released two albums, but 1971's The Yes Album was the record that put them on American FM radio and into millions of living rooms around the world. Yes – 50 Live 2019 MP3 320kbps CBR and FLAC 24-bit Hi-Res Lossless Roundabout (9:15. Yes - Roundabout 8:33 34. 5 MB) Yes - Roundabout 34. Yes - Roundabout (early rough mix). FLAC (Free Lossless Audio Codec) サンプリング周波数:44. Yours Is No Disgrace 08. The Preacher. Yes download high quality complete mp3 albums. 16-bit FLAC; Preview Roundabout (Live. As a dominant force for more than four decades, YES has sold more than 33 million albums worldwide. 3 contributors total, last edit on Nov 10, 2019. -Siberian Khatru. wav Peak level 98. 05 - Roundabout Steve Howe - guitars Chris Squire - bass Alan White - percussion Trevor Horn - vocals Geoff Downes - keyboards DOWNLOAD: (links in comments) (PASSWORD = ra) POST INFO NOTES FROM TWO OFFICIAL "BLIND" B80 PROJECT TEST GROUP LISTENERS "What a treat it is to listen to this lovingly mastered recording of the Yes DRAMA lineup live. Jethro Tull - Teacher (Single Mix; 2001 Remaster) 3:48 398. Tracklist:. Yes - Classic Yes [1981] (2003) {Remastered, Japan} FLAC. A second, more expansive career-retrospective five-disc box set, In a Word: Yes, was released in 2002, and around this same time Japanese WEA reissued the entire Yes catalog in audiophile-quality remastered editions, packaged in handsome miniature LP sleeves that re-created all of the Roger Dean-designed jackets in perfect detail, inside and out. Cinema 2:40 02. Artist: Yes Album: Fragile Year: 1972 Genre: Progressive Rock Codec: Flac Quality: Lossless Include: Log + Scans (Front, Back, CD) tracklist: 1 - Roundabout. I fooled with my recorder right as the show started. 2016-07-16T01:18:16Z Comment by Kirino Kōsaka. Really ring. This show, though traded as a soundboard, is NOT a soundboard recording, just a very good audience recording. flac; The Killers - When You Were Young. / Yes – 50 Live 2019 MP3 320kbps CBR and FLAC 24-bit Hi-Res Lossless. Yessongs is the first live album from the English progressive rock band Yes, released on Atlantic Records. Long Distance Runaround was released by Yes in the winter of 1971 on their 4th studio album, Fragile. Owner of a Lonely Heart 6:21 05. This is a great recording of Yes on the Tales from Topographic Oceans tour. The opening minute of "Roundabout," the album opener -- and the basis for the edited single that would reach number 13 on the Billboard charts and get. flac 07 Soon (Single Edit). 7 MB Yes - Time and a Word 1970 (Remastered)/01 - No Opportunity Necessary/ No Experience Needed. Yes, Long Beach Arena, Long Beach, CA, September 26, 1977 We continue our series with another one of Millard’s most famous and beloved recordings, Yes at the Long Beach Arena 1977. 04/04/1988 Tokyo, Japan: Yoyogi Olympic Pool: Rhythm Of Love: Hold On: Heart Of The Sunrise: Big Generator: Changes: Shoot High Aim Low: Kaye Solo: Solly's Beard: Owner Of A Lonely Heart: Yours Is No Disgrace: Nous Sommes Du Solei: And You And I: Wurm: Love Will Find A Way: I've Seen All Good People. VA 40 Classic Rock Favorites 2 (2020) [FLAC] vtwin88cube torrent download, InfoHash 5AE2D6DB2EBB3EB13272D5D1BF291A55D973D28D. Director: Brian Lane, David Speechley Writers: Peter Neal Stars: Jon Anderson, Chris Squire, Steve Howe, Rick Wakeman, Alan White Production Co: SMC Recordings Yessongs is Yes's first concert album. Yes (1969) EAC Rip | FLAC Image + Cue+ Log | Full Scans Included PS3 SACD Rip | ISO @1bit/2. 33 Gb Tracklist: CD1: The Yes Album 01. Download Yes Roundabout MP3 completely free. -Yours Is No Disgrace. Roundabout 8:41 Disc 2: 01. Формат: FLAC (tracks) Битрейт аудио: ~900 Yes 1969-1980 12 Альбомов (FLAC(tracks)) Yes 1980-1997 9 Альбомов (FLAC(tracks)) Треклисты 1998 Friends & Relatives Disc: 1 1. 8224 MHz | 38:48 minutes | Scans included | 1,3 GB or FLAC (converted with foobar2000 to tracks) 24bit/88,2 kHz | Full Scans included | 972 MB Mastered for this SACD by Steve Hoffman | Audio Fidelity # AFZ-157 Going for the One is the eighth studio album by English progressive rock band Yes. 1 MB CD2/auCDtect. They had previously played And You & I and Siberian Khatru on the first US leg of the tour and now they were kicking off a 2-week mini tour of the UK at the Crystal Palace Garden Party. › 无损资源 › [无损音质]Yes - Roundabout. Sadly "Classic Yes" has fallen into shadows as I'd just rather listen to the original studio albums. The Who - Won't Get Fooled Again 8:32 AQUI pass: sanjose72 ***. Yes released an edited version of "Roundabout" as the album's single in the US which reached number 13, and remains one of the band's best known songs. Yes - Roundabout (early rough mix). Fragile was Yes' breakthrough album, propelling them in a matter of weeks from a cult act to an international phenomenon; not coincidentally, it also marked the point where all of the elements of the music (and more) that would define their success for more than a decade fell into place fully formed. Direct download via HTTP available as well. 07 MB-----找歌很辛苦,请认真回复-----资源均为网友网络收集,如有任何触犯您权益的地方请联系我们链. 01 MB) Yes - Heart of the Sunrise (Oakland 1978) - 10:56 (903 kbps , 70. Download Yes - Yes 50 Live (2019) Flac + Mp3 or any other file from Music category. 2 MB) 04 - South Side Of The Sky. Yesterday And Today / Everydays 04. 3 Compilation albums. Out 18 Sept 2013. Yesのディスコグラフィ <プロフィール>1968年、ロンドンで結成。デビュー時のラインナップはジョン・アンダーソン、クリス・スクワイア、ピーター・バンクス、トニー・ケイ、ビル・ブラッフォードの5人。. -Time And A Word 02. 5 / 5, 2. Yes - Topographic Drama (Live Across America) (2017) FLAC *INFO* Yes - Topographic Drama (Live Across America) (2017) Genre: Progressive RockQuality: Quality: FLAC (*. 63 MB) Yes - Awaken (Chicago 1979) - 17:54 (916 kbps , 117. Cans And Brahms (1:40) 03. flac wrld-drift_away. Yes - Roundabout (2003 Remaster) 8:30 394. 0 > 1-bit/2. Annie Haslam - Onward 4. They had previously played And You & I and Siberian Khatru on the first US leg of the tour and now they were kicking off a 2-week mini tour of the UK at the Crystal Palace Garden Party. 07 MB-----找歌很辛苦,请认真回复-----资源均为网友网络收集,如有任何触犯您权益的地方请联系我们链. Download FLAC-Free Lossless Audio Codec for free. Yes In a Word (1969–) 2008 Remastered [EAC FLAC](oan) torrent download, InfoHash A7A645954F818339689F39425EF1170E5A06C18C. Kredit umožní i stahování neomezenou rychlostí. Life Seeker; B. -Time And A Word 02. The cover of YES 50 LIVE was painted by Roger Dean, whose artwork and trademark calligraphy are synonymous with the band's identity. -Yours Is No Disgrace. Yes The Definitive Rock Collection (2007) FLAC LOSSLESS 16bit-44kHz Rhino R2 74188 Tracklist: CD1 01. Previous Post: Yes - Topographic Drama - Live Across America (2017) [FLAC 24/44,1] Next Post: Yes - Yes (1969/2013) [FLAC 24/192] Leave a Reply Cancel reply. 38 GB This retrospective features three discs spanning 1970-1988 and offers almost four hours of masterful live performances. : Tracklist : Yes never. Sweet Dreams (5:26)04. I fooled with my recorder right as the show started. Quality: DSD (2. 0 > 1-bit/2. 08 Wonderous Stories. Yes - Symphonic Live (2003) [FLAC] {Bonus DVD} # Actors: Yes, Jon Anderson # Format: Collector's Edition, Color, Dolby, DTS Surround Sound, DVD, Live, Widescreen, PAL # Language: English # Aspect Ratio: 1. 2 KB) Yes - Fragile. cz E-shop funguje bez omezení!. THIS ALBUM DOWNLOAD FEATURES HIGH RESOLUTION COVER ART ONLY. Roundabout Long Beach Long Beach Arena, 26-September-1977, Long Beach CA courtesy of Bob P. Driven by Jon's artistic vision, they produced such timeless, symphonic-rock masterworks as "Roundabout," "Close To the Edge," and "Awaken". Description; Tracks (10) Reviews (2) Propelled by the timeless hit "Roundabout," Yes' fourth album, Fragile, became an instant classic and is undoubtedly one of prog-rock's finest moments. This track was the first and longer of the two songs that made up side two. Through the south. Album Roundabout (Live). Download Yes - In a Word (1969–) 2008 Remastered [EAC-FLAC](oan) torrent or any other torrent from Music category. In Buenos Aires they sold out the 7,000 capacity Stadium De Luna Park. flac Flac 百度网盘 萝卜头 2019-07-11 08:25:05 5876 只看Ta. Koop, beluister en download meer dan 25 miljoen tracks in onze winkel. YES 50 LIVE features 13 live performances of key songs that helped make Yes the most enduring, ambitious, and virtuosic progressive band in rock history. Deep Purple - Highway Star. Download Yes - High Vibration (16 SACD Hybrid Box Set) - 2013, FLAC, Lossless or any other file from Music category. -Roundabout 06. Live at Montreux 2003 is a music live recording by YES (Symphonic Prog/Progressive Rock) released in 2007 on cd, lp, vinyl and/or cassette. -Heart Of The Sunrise. Ice - Rick Wakeman 3. South Side Of The Sky 05. 5 MB) Yes - Roundabout 34. -I've Seen All Good People. Exact Audio Copy V1. Searching → Yes Roundabout mp3. Forget It, I’ve Got It 03:26 10. Owner Of A Lonely Heart (98 Remake) - Jon Anderson 2. Stream YES - Roundabout by Yes (official) from desktop or your mobile device. July 2004 soundboard > 1st copy > eac > wave > trackmarker with WaveLab 3. Nghe online bài hát Roundabout do ca sĩ Yes thể hiện. flac 10 Roundabout. Yes - Long Distance Runaround 07. View credits, reviews, tracks and shop for the 2002 96kHz/24bit File release of Fragile on Discogs. Yes - Owner of a Lonely Heart. Lynyrd Skynyrd - Free. Yes - Heart of the Sunrise 10. 04 Roundabout unknown model dictation style Tape Recorder External Mono Microphone Scotch cassettes Mastered and FLAC'ed by Carl Morstadt ([email protected] 1kHz/16bit Downloads from HD Tracks are all higher resolution than CD, in some cases as high as 192kHz/24bit. Yes Symphonic Live 2009 Eagle. Cans And Brahms 03. In the 1970s, Yes reached their creative peak in the progressive genre when most notably Anderson, Squire, Howe, Kaye, Bruford, drummer Alan White, and keyboardists Rick Wakeman and Patrick Moraz were part of the band's line-ups, and produced what many critics consider their finest works: The Yes Album, Fragile (both in 1971), Close to the Edge. Yes - Roundabout (early rough mix). Dear Father 03. Show current auctions. Singer Riley McShane says. A new high-resolution remix by Steven Wilson polishes this early 70s prog-rock gem nicely. January 29, 2011 at 12:35 PM. Long Distance Runaround was released by Yes in the winter of 1971 on their 4th studio album, Fragile. Pressed By – Monarch Record Mfg. -And You And I 10. Through the south. flac: 57 MB: 34. Jon Davison & Patrick Moraz - On The Silent Wings Of Freedom 2. It’s All About A Roundabout 02:45 07. -Time And A Word 02. I've Seen All Good People Jon Anderson - Vocals Steve Howe - Guitars Patrick Moraz - Keyboards Chris Squire - Bass Alan White - Drums Yes - Close To The Edge (live 1974) 1995 FLAC; The Faces - Too Drunk For The BBC (1973) FLAC; Ozzy Osbourne - Bark at the Tokyo (1984-07-06) FLA. 01 MB) Yes - Heart of the Sunrise (Oakland 1978) - 10:56 (903 kbps , 70. flac 61 MB; Yes - Yessongs [SHM. Download Yes Roundabout MP3 completely free. CD08 Greensboro NC/ November 12/ 1972 [Disc 2]/03 Roundabout. flac one_republic-counting_stars. Creedence Clearwater Revival - Have You Ever Seen The Rain 2:40 395. Bubbles 02:53 11. Jimi Hendrix - Purple Haze 2:51 397. 52 Mb Yes - Fragile 1971/03. Progeny: Highlights from Seventy-Two Yes 2015 From $10. Yes - The Ultimate Yes (2004) [FLAC] (3 CDs Box Set, 35th Anniversary Collection, Elektra, Rhino Records, R2 78042) Date: 2004-01-27 | Label: Elektra, Rhino Re. 5 / 5, 2. -Starship Trooper 03. flac panda_eyes-crystal_cave. Heart Of The Sunrise 11:3304. 81 MB - Yes Disc 1. Excellent Soundboard Recording - Silver CD/s - MP3 CBR 320 kbps & FLAC. Yes - Wembley Arena 78 / 25th Anniversary. ハイレゾ商品(FLAC)の試聴再生は、AAC形式となります。実際の商品の音質とは異なります。. 16-bit FLAC; Preview Progeny: Highlights from Seventy-Two. Blade Runner 2049 (2017) 1080p 10bit Bluray x265 HEVC [DTH DD 2. Yes - Symphonic Live (2003) [FLAC] {Bonus DVD} # Actors: Yes, Jon Anderson # Format: Collector's Edition, Color, Dolby, DTS Surround Sound, DVD, Live, Widescreen, PAL # Language: English # Aspect Ratio: 1. 10 – Roundabout (Live) 11 – Long Distance Runaround (Live, Bonus Track) 12 – Show Me (Live, Bonus Track) 13 – Time Is Time (Live, Bonus Track) 14 – Tiger Rag (Live, Bonus Track) Continue reading “Yes – Live at Glastonbury Festival 2003 (2019)”. 08 Wonderous Stories. 4 MB) 10 - Roundabout. 8224 MHz | 716:14 minutes | Scans included | 23,8 GB or FLAC 2. A Life In Yes: The Chris Squire Tribute by Chris Squire Tribute, released 23 October 2018 1. 33 Gb Tracklist: CD1: The Yes Album 01. Yes Disc 1/01 Time and a Word. 2 KB) Yes - Fragile. I learned yet another taping lesson. Download Yessongs by Yes in high-resolution audio at ProStudioMasters. It was the first Yes record to feature Rick Wakeman on keyboards and the first to display the inimitable artwork of Roger Dean. 4 MB) 10 - Roundabout. Download FLAC-Free Lossless Audio Codec for free. Perpetual Change Disc 04 - Fragile (1971) 01. YES: THE STEVEN WILSON REMIXES will be available on 29th June as a five album set. Made in Japan. -Wonderous. Domestically, in 2003, Rhino released a full set of new remasters with added bonus tracks. Made in DE. flac ===== General File size : 435 MiB Album : Highlights - The Very Best Of Yes. Yes - Fragile. : Other Files :. Forget It, I’ve Got It 03:26 10. Yes - 2019 - 50 Live (HDtracks) [[email protected] Yes - Roundabout 8:33 34. In the Present – Live from Lyon is a 2 CD & 1 DVD album by Yes, released on 29 November 2011 in North America and 2 December 2011 in Europe. 10 Owner Of A Lonely Heart. Yes - 90125 1983. 85 MB 02-Yes-Fragile (MFSL Gold) Yes-Close To The Edge (MFSL). Really ring. Electronic. 8224MHz, DSD64 | FLAC Tracks @24bit/88. Yes - Yes 50 Live (2019) 2CD | EAC Rip | FLAC (Tracks) + Cue + m3u8 + Log ~ 726 Mb Full Scans ~ 61 Mb | 01:02:50 + 00:36:39 | RAR 5% Recovery Progressive Rock | Rhino #R2590763 / 603497852154 Yes celebrated their 50th anniversary with a tour through America and Europe, one that is commemorated on Rhino's 2019 set 50 Live. 56> CDWaveEditor v1. Yes - Fragile (1971~2019) 24-192 FLAC HI-Res Yes - Fragile (1971~2019) VINYLGenre: Classic Rock, Prog Rock Quality: FLAC (*. Firebird Suite> Close To The Edge 02. The Fish (Schindleria Praematurus) 08. YES: THE STEVEN WILSON REMIXES will be available on 29th June as a five album set. 39 Mb Yes - Symphonic Music of Yes 1993/03. Credit allows you to download with unlimited speed. Walls 5:50 09. YES 50 LIVE features 13 live performances of key songs that helped make Yes the most enduring, ambitious, and virtuosic progressive band in rock history. 1) -> Xact (convert to FLAC) Set One: Yes Album, Close. Luna Park 1999 is one of the very few silver titles from Yes' Ladder tour. flac [无损音质]Yes - Roundabout. 38 mb Yes - Fragile [ remastered 2 Bonus Tracks] (2003) [320] vtwin88cube File Size : 144. Yes - Yessongs (2009) [FLAC] {SHM-CD Japan} Yes - Yessongs (1973) [2009, Japan SHM-CD] 2CD | Progressive/Art Rock Label: Atlantic. 0 > 1-bit/2. YES - Progeny: Highlights From Seventy Two Rhino Records (2) R1 545488, Atlantic- R1 545488 3 X Vinyl, LP, Album, Tri - Fold Europe 2015 Ouch! Live Yes from 1972 doesn't get any better than that. There is a collector's incentive to "Classic Yes" as it includes live version of "Roundabout" and "I've Seen all Good People. The concert was recorded at the soundboard. flac; Yes - Roundabout. 03 Starship Trooper. Roundabout 02. 01 Jon Anderson , Owner Of A Lonely Heart. Flac/Shnn links also saying similar:(Hotfile is better for sharing. Roundabout ----- PERFORMED BY YES Jon Anderson: vocals Bill Bruford: drums, percussion Steve Howe: electric and acoustic guitars, backing vocals Chris Squire: bass guitars, backing vocals Rick Wakeman: Hammond organ, piano, RMI 368 Electra-Piano and Harpsichord, Mellotron, Moog synthesizer PRODUCED BY Eddie Offord & YES ----- Released 25 July. Download Yes - Yes 50 Live (2019) Flac + Mp3 or any other file from Music category. 2002 Two Sides Of Yes - Volume II [CRP0952, UK] 2002 The Real Lisztomania 2001 Two Sides Of Yes [CRL0857, UK] 2000 Chronicles Of Man 2000 Preludes To A Century 2000 A. Domestically, in 2003, Rhino released a full set of new remasters with added bonus tracks. 71 GB 1 Roundabout 8:36 2 Cans And Brahms (Extracts From Brahms' 4th Symphony In E Minor, Third Movement) 1:42 3 We Have Heaven 1:39 4 South Side Of The Sky 7:58 5 Five Per Cent For Nothing 0:37 6 Long Distance Runaround 3:30 7 The Fish (Schindleria Praematurus. 2 kHz (Tracks) Artist: Yes Title: Fragile Released: 1971/2013 Style: Progressive Rock RAR Size: 1. Yes-Opening-Exerpt From Firebird Suite. YES 50 LIVE will be available from Rhino on 2nd August as two CDs, or four LPs. Excerpts From. Yes biography Active since 1968 with varying formations - Two major hiatus between 1981-1983 and 2004-2008 YES formed in London (UK) in 1968 with Jon ANDERSON (vocals), Chris SQUIRE (bass, vocals), Peter BANKS (guitar, vocals), Tony KAYE (keyboards), and Bill BRUFORD (drums). : Tracklist : Yes never. 15 Roundabout Total time: 2:12:31 Benoit David - Vocals, percussion, acoustic guitar Geoff Downes - keyboards, vocoder, backing vocals Steve Howe - guitars, backing vocals Chris Squire - bass, backing vocals Alan White - drums (links in comments) (PASSWORD = ra). Yes Lost YesYears (Highland) Bob Dylan 1998-05-16 The Gorge Amphitheatre George As The Crow Flies 2018-05-13 Crystal Ballroom Port Yes Looking Around (The Early Years Label) Yes 1969-01-01 - Looking Around (Lost Rose Label) Styx 1977-11-04 Orpheum Theatre Boston, MA; The Replacements 1989-04-08 Cook College, New Brun. 717,250 views, added to favorites 4,436 times. Astral Traveller 08. wav Peak level 98. Starship Trooper 8. Preview, buy and download high-quality music downloads of Yessongs by Yes from 7digital Canada - We have over 30 million high quality tracks in our store. You have no items in your shopping cart. 9 MB: Yes Disc 1/03 Yours Is No Disgrace. Five Per Cent For Nothing 06. Cans And Brahms 03. -Heart Of The Sunrise. Catalog #: GYRBD50096 Style: Progressive Rock, Classic Rock Year: 1974 (edition 2014) Format: FLAC (image. (RMCH 008) Recorded Live at HiFi Buys Amphitheatre , Atlanta, Georgia , USA - August 13, 2002. It remains. Starship Trooper: Life Seeker / Disillusion / Würm (Remix). 8 MB FLAC Original Master Recording/02 - Cans And Brahms. 0 % Test CRC 69DE4ACA Copy CRC 69DE4ACA Accurately ripped (confidence 5) [7D70B0DC] (AR v2) Copy OK Track 6. Artist: Yes Album: Fragile Year: 1972 Genre: Progressive Rock Codec: Flac Quality: Lossless Include: Log + Scans (Front, Back, CD) tracklist: 1 - Roundabout. Anniversary Medley 06. 09 Roundabout (9. Download Yes - Fragile [Remixed by Steven Wilson] (2015) FLAC Beolab1700 torrent or any other torrent from Lossless category. ; Manufactured By – Atlantic Recording Corporation ; Mastered At – Atlantic Studios. flac noma-brain_power. -Roundabout. 16-bit FLAC; Preview Roundabout (Live) Roundabout (Live) Yes 2017 From $1. 0 Total Size: 1. -And You And I. 03 Starship Trooper. Firebird Suite> Close To The Edge 02. Beyond And Before 06. [font=Optima] [SIZE=6] The primary Yes catalog has been through at least five different sonic revisions since the debut of those horrid-sounding domestic Atlantic CD's in the late 1980's. 27 MB Yes 50 Live was recorded on the US leg of their 50th anniversary tour with a majority of the album coming from two dates at The Fillmore in Philadelphia on July 20th and 21st 2018. 0 Hindi + DD 5. General Unique ID : 225395946459859488550282041122058660634 (0xA991AE25B8340059BACAC9BFB133EB1A) Complete name : E:\Yes - Yessongs (2012)\Yes. Acquista 'The Studio Albums 1969-1987 di Yes' mp3 download online 7digital Italia - Oltre 25 milioni di tracce di alta qualità nel nostro negozio. A Venture 06. 0 MB) 03 - Machine Messiah Live. There is a collector's incentive to "Classic Yes" as it includes live version of "Roundabout" and "I've Seen all Good People. 71 GB 1 Roundabout 8:36 2 Cans And Brahms (Extracts From Brahms' 4th Symphony In E Minor, Third Movement) 1:42 3 We Have Heaven 1:39 4 South Side Of The Sky 7:58 5 Five Per Cent For Nothing 0:37 6 Long Distance Runaround 3:30 7 The Fish (Schindleria Praematurus. Yes - Yessongs (1973/2013) Yes had just undergone a personnel change shortly after concluding work on Close to the Edge as Bill Bruford (percussion) left to join King Crimson in July of 1972. Info for Fragile (Remastered) Propelled by the timeless hit "Roundabout," Yes' fourth album, Fragile, became an instant classic and is undoubtedly one of prog-rock's finest moments. As far as quality goes and the criticism it. 05 MB,包含22个文件 FLAC Original Master Recording/01 - Roundabout. Genre: Rock Format: FLAC Quality: Lossless 05 – Roundabout (Live 2019) 06 – Starship Trooper (Live 2019) Download. -I've Seen All Good People 05. cue) Quality:. Tracklist: 01 - Roundabout (2015 stereo mix) 02 - Cans and Brahms (2015 stereo mix). Download Yessongs by Yes in high-resolution audio at ProStudioMasters. 12 Rhytm Of Love. Yes - The Fish (Schindleria Praematurus) 08. Tobacco Road 05;15 08. Download FLAC-EAC-CUE Yes - Fragile (1972) torrent or any other torrent from Lossless category. Yes - Long Distance Runaround (Stereo Remix) (03:30) 2-07. 8 MB) 02 - Cans And Brahms. flac; Flexx - The Good, The Bad And The Ugly. As someone who has heard an awful lot of live Yes recordings (both licit and otherwise) I'm going to hit this particular album track by track. Fragile was Yes' breakthrough album, propelling them in a matter of weeks from a cult act to an international phenomenon; not coincidentally, it also marked the point where all of the elements of the music (and more) that would define their success for more than a decade fell into place fully formed. here's mine: gotye-somebody_that_i_used_to_know. Deep Purple - Highway Star. to is the largest czech cloud storage. Yes, Long Beach Arena, Long Beach, CA, September 26, 1977 We continue our series with another one of Millard’s most famous and beloved recordings, Yes at the Long Beach Arena 1977. Yours Is No Disgrace 02. Allegaeon are gifting fans with a stellar new cover of the Yes classic "Roundabout," showing some of their nimble playing on their version of the epic '70s favorite. All artists. Infohash 59122b09932ea9f2435ff025db41492639008c0c. 0 KB) Front. Tonight’s performance was the. 0 % Test CRC 69DE4ACA Copy CRC 69DE4ACA Accurately ripped (confidence 5) [7D70B0DC] (AR v2) Copy OK Track 6. South Side Of The Sky 05. The album was certified gold in 1973 and platinum in 1998 by the Recording Industry Association of America. 8 MB FLAC Original Master Recording/02 - Cans And Brahms. Tracklist: 01. The performance is second to none. Deep Purple - Highway Star 35. 56> CDWaveEditor v1. Yes - We Have Heaven 04. Fantastic sounds. Through the south. HTTP download also available at fast speeds. Eric Clapton - Greenwich Town Party 2018 (2018-05-26; The Rolling Stones - London Stadium (2018-05-22) Mark Knopfler And Friends - Dire Straits And Hillbillies Farewell (2002-07-23+24+25). -Wonderous Stories CD2 01. 09)FLAC; Led Zeppelin - When We Were Kings. 717,250 views, added to favorites 4,436 times. Yes-Opening-Exerpt From Firebird Suite. Peggy Lee - Till There Was You. Yes - Roundabout 02. Starship Trooper: Life Seeker / Disillusion / Würm (Remix). Cinema 2:40 02. 4 MB) Symphonic. November 2010 EAC extraction logfile from 8. 4 % Track quality 100. Today we're kicking off a week-long celebration of bass with a number of isolated bass tracks, starting with the bass work of Chris Squire on the classic Yes hit "Roundabout". Made in UK. This double disc by Rhino includes 26 tracks from virtually all versions of Yes. Yes- Roundabout- Live From Lyon 2009 - Starrlight Mighty5. Propelled by the timeless hit "Roundabout," Yes' fourth album, Fragile, became an instant classic and is undoubtedly one of prog-rock's finest moments. 41 GB 1969 - Yes (00:41:31):01. The Clap 03. Catalog #: 8122796496 Style: Progressive Rock Year: 2013 Format: FLAC. 39 Mb Yes - Symphonic Music of Yes 1993/03. In the liner notes to the record's long-ago deluxe CD reissue, he observes, "All of the Yes elements are here: inventiveness, sweetness, and wistfulness, bright colors that are more. Your IP Address is Location is - Your ISP and Government can track your torrent activity! Hide your IP with a VPN!. Quality: FLAC 16 bit / 44. Yes - We Have Heaven 04. Yes is a British progressive rock band which formed in London, United Kingdom in 1968. Download YES - Fragile (1971) {2015, Definitive Edition, Remixed, CD + Blu-ray + Hi-res Audio 24bit} EAC Rip | FLAC Image + Cue + Log | Full Scans @600 dpi, PNG, Lossless Music Archives Don't leave false ilusions behind. View credits, reviews, tracks and shop for the 2013 192kHz/24bit File release of Yessongs on Discogs. flac; The Killers - When You Were Young. Hold On 03. 40 MB - CD1. Fragile is the fourth in a series of remixed and expanded Yes albums. And You And I (A. Yes - Fragile (1971) [Japanese SACD 2013] PS3 Rip | SACD ISO | DSD64 > 1-bit/2. CONTENT: CD FLAC MP3 @ 320Kbps TRACKLIST: 01 - Roundabout 02 - Cans And Brahms 03 - We Have Heaven 04 - South Side Of The Sky 05 - Five Per Cent For Nothing 06 - Long Distance Runaround 07 - The Fish (Shindleria Praematurus) 08 - Mood For A Day 09 - Heart Of The Sunrise. Achetez, pré-écoutez et téléchargez parmi 25 millions de titres sur notre boutique. I've Seen All Good People 7:08 05. Fantastic sounds. 1 - Roundabout 2 - Cans And Brahms 3 - We Have Heaven 4 - South Side Of The Sky 5 - Five Per Cent For Nothing 6 - Long Distance Runaround 7 - The Fish (Schindleria Praematurus) 8 -Mood For A Day 9 Heart Of The Sunrise [. Performer: Yes Album: Relayer Label: Panegyric. Good news, out now is the album 'Wondrous Stories: The Best of Yes', it was originally released in 2011 with a cover I didn't know about or approve. FlacMusicFinder. This show, though traded as a soundboard, is NOT a soundboard recording, just a very good audience recording. Yes - America 11. -Starship Trooper. The Ultimate Yes: 35th Anniversary Collection is a triple compilation album by progressive rock band Yes and was released in 2003 in the United Kingdom and in early 2004 in the United States and covers the length and breadth of the band's thirty-five-year career. I'll be the roundabout The words will make you out an' out You spend the day your way Call it morning driving Through the south In an' out the valley The music,. Van Halen - Jump (2015 Remaster) 002. Yes - Hold On. Download Roundabout (Live) (Single) by Yes Featuring Jon Anderson, Trevor Rabin, Rick Wakeman in high-resolution audio at ProStudioMasters. Cover art included, liner notes not included. In the 1980s, YES pushed new digital sampling technologies to their limits, selling millions of records and influencing a generation of digital musicians with classics like "Owner Of A Lonely Heart" and. Yes - Cans and Brahms 03. com - Available in MQA and 192 kHz / 24-bit, 96 kHz / 24-bit AIFF, FLAC high resolution audio formats,. The words will make you out 'n' out. Through the south. The Studio Albums 1969-1987 by Yes (2014, 24 bit Hi-Res Web Flac) - Release Date: 2014 Genre: Rock Audio Codec: Flac Rip Type: tracks Bitrate: lossless Audio Channels: 2. The Ultimate Yes: 35th Anniversary Collection is a triple compilation album by progressive rock band Yes and was released in 2003 in the United Kingdom and in early 2004 in the United States and covers the length and breadth of the band's thirty-five-year career. Yes – 50 Live 2019 MP3 320kbps CBR and FLAC 24-bit Hi-Res Lossless Roundabout (9:15. Robert Berry's "Roundabout" riffs remind me of the some of the best songs on Yes' Open Your Eyes album. Notes: When Yes released Open Your Eyes in November 1997 they toured for almost a solid year with very little breaks between the various legs. Yes - Yes - Time And A Word - Fragile. 1 kHz (Tracks) Artist: Yes Title: Yes 50 Live Released: 2019 Style: Rock RAR Size: 1. Intro / Siberian Khatru 02. Yours Is No Disgrace 02. 10 MB cd3/d3t10. Yes - Wonderous Stories. Santana - Oye Como Va. A second, more expansive career-retrospective five-disc box set, In a Word: Yes, was released in 2002, and around this same time Japanese WEA reissued the entire Yes catalog in audiophile-quality remastered editions, packaged in handsome miniature LP sleeves that re-created all of the Roger Dean-designed jackets in perfect detail, inside and out. flac twenty_one_pilots-stressed_out. Ultra Clean PreFM Recording :: CBR 320 kbps. Yes - Symphonic Live (2003) [FLAC] {Bonus DVD} # Actors: Yes, Jon Anderson 09 - Owner Of A Lonely Heart. Long Distance Runaround was released by Yes in the winter of 1971 on their 4th studio album, Fragile. Download Roundabout (Live) (Single) by Yes Featuring Jon Anderson, Trevor Rabin, Rick Wakeman in high-resolution audio at ProStudioMasters. 21>XACT>flac Here is a wonderful snapshot of YES in their prime, featuring the band in 1977 and 1976, all from first-generation tapes. America (1972 from 'Fragile' Expanded & Remastered 2003) 10:31 05. 80 gb Disc 01 - Yes (1969) Disc 02 - Time And A Word (1970) Disc 03 - The Yes Album (1971). In 2016, Jon Anderson, Trevor Rabin and Rick Wakeman performed a series of concerts celebrating Yes’ musical legacy. Looking Around - 4:20 05. Torrent Details For "Yes - Symphonic Live (2003) [FLAC] {Bonus DVD}" Yes - Symphonic Live (2003) [FLAC] {Bonus DVD} To download this torrent, you Don't Go, Starship Trooper, And You and I, I've Seen All Good People, Owner of a Lonely Heart, Roundabout PLEASE GIVE AT LEAST WHAT YOU HAVE TAKEN STAY IN SEED PLEASE. Recommended tracks Grand Dad Strike Back by dannyrom288 published on 2016-10-31T16:53:53Z Your Best High Quality Videogame Rip- Giivatale by Kirby the Star Warrior published on 2016-05-06T23:31:18Z Battle Against A True Krab by Zoom published on 2016-10. Artist: Yes Album: Classic Yes Released: 2003 Style: Progressive Rock, Art Rock Format: EAC Rip; FLAC (Img) + Cue + Log, Scans. Yes - Fragile. We Have Heaven. Yes The Definitive Rock Collection (2007) FLAC LOSSLESS 16bit-44kHz Rhino R2 74188 Tracklist: CD1 01. Beyond And Before 02. Yes - Symphonic Live (2003) [FLAC] {Bonus DVD} - 7848. Album Roundabout (Live). flac noma-brain_power. Yes-Opening Suite Exerpt From Firebird Suite. Yes - The Studio Albums 1969-1987 [13CD Box Set] [HD Tracks] (2013) Artist: Yes Title Of Album: The Studio Albums 1969-1987 Year Of Release: 2013 Label (Catalog#): Atlantic, Rhino, Warner [8122796496] Country: England Genre: Progressive Rock, Symphonic Rock, Art Rock Quality: FLAC (*tracks). Yes - Fragile [FLAC] Ant4rez Yes es una banda de rock progresivo británica, formada en 1968 en Londres, que adquirió fama internacional en los años 70, erigiéndose en uno de los pilares del género, junto a grupos como Rush, Pink Floyd, Camel, Genesis, King Crimson y Emerson, Lake & Palmer. Yes toured as a major rock act that earned the band a reputation for their elaborate stage sets, light displays, and album covers designed by Roger Dean. rar, zip archives available. flac chill: enzalla-cobalt. Year Of Release: 2018 Genre: Rock Format: DSF, Tracks Source/Codec: LP/DSD 128 Bitrate: lossless Sample Rate: 1/5,6 Mhz Total Size: 19. 0 (converted with foobar2000 to tracks) 24bit/88,2 kHz | Scans included | 16,45 GB High Vibration is a limited edition 16 SACD box set, featuring the 13 albums released by English prog rock supergroup Yes, between 1968 and. This has always been my favorite show from the Going For the One tour for two reasons:. Sweet Dreams 05. Tracks: Disc 1 1 Opening (Excerpt From Firebird Suite) 3:47 2 Siberian Khatru 9:03 3 Heart Of The Sunrise 11:33 4 Perpetual Change 14:11 5 And You And I (A. Yes - America 11. Sonja Kristina - The Fish 6. Yes - Wembley Arena 78 / 25th Anniversary. Yes - The Steven Wilson Remixes (2018) [FLAC 24bit/96kHz] Yes featuring Anderson, Rabin, Wakeman - Live At The Apollo (2018) [FLAC 24bit/48kHz] Yes - Fly From Here: Return Trip (2018) [PledgeMusic FLAC 24bit/44,1kHz] Yes - Topographic Drama - Live Across America (2017) [FLAC 24bit/44,1kHz]. Tracklist: 01. Yes - Live At The Apollo (2017) BDRip 720p Screenshots: Setlist: 01. Beyond And Before 05. 3 MB 03 - We Have Heaven. flac dnb: wrld-by_design. I keep hearing this song but what is the name. Download Yes Roundabout MP3 completely free. 1 - Roundabout 2 - Cans And Brahms 3 - We Have Heaven 4 - South Side Of The Sky 5 - Five Per Cent For Nothing 6 - Long Distance Runaround 7 - The Fish (Schindleria Praematurus) 8 -Mood For A Day 9 Heart Of The Sunrise [. Driven by Jon's artistic vision, they produced such timeless, symphonic-rock masterworks as "Roundabout," "Close To the Edge," and "Awaken". Lift Me Up 05. Eclipse; C. Yes - Topographic Drama (Live Across America) (2017) FLAC *INFO* Yes - Topographic Drama (Live Across America) (2017) Genre: Progressive RockQuality: Quality: FLAC (*. Yes - Yessongs (1973/2013) Yes had just undergone a personnel change shortly after concluding work on Close to the Edge as Bill Bruford (percussion) left to join King Crimson in July of 1972. Yes - Fragile. Listen free to Yes - Classic Yes (Heart of the Sunrise, Wonderous Stories and more). July 2004 soundboard > 1st copy > eac > wave > trackmarker with WaveLab 3. Yes - 2019 - 50 Live (HDtracks) [[email protected] 5 (EQ, level adjustment, fades, tracking, resample to 16/44. 11: Excerpt from Georgia's Song and Mood for a Day (Live 2019) 04:02: 44. 8 MB) 02 - Cans And Brahms. -America (Single Edit) 11. Cans And Brahms (Extracts From Brahms' 4th Symphony In E Minor, Third Movement) (1:42). 90 KB YES - YES Remixes Art/YES - YES Remixes 2003 B01. Long Distance Runaround 07. Writer and Yes scholar Bill Martin didn't miss the significance of "Roundabout," which holds the key to unlocking all the adventures that follow on the album. Good news, out now is the album 'Wondrous Stories: The Best of Yes', it was originally released in 2011 with a cover I didn't know about or approve. Yes - The Fish (Stereo. It reached number 7 on the UK Albums Chart and number 12 on the Billboard 200 in the United States. Beyond and Before - 4:56 02. -I've Seen All Good People 05. The artwork is stunning as usual, except for one panel that looks like it was done when Roger Dean was 6 or 7 years old. Release Name: Yes-50_Live-2CD-FLAC-2019-401 Artist: Yes Album: 50 Live Genre: Rock Year: 2019 Tracks: 6 Duration: 01:51:03 Size: 687. Born in Holloway, North London, Howe developed an interest in the guitar and began to learn the instrument himself at age 12. (HighLand:: HL 529/530)Recorded live at Chronicle Pavillion, Concord, USA - July 21, 2000. Don't Be Late 2. Yes - South Side Of The Sky (Stereo Remix) (08:02) 2-05. 0 Total Size: 1. Roundabout. Walls 5:50 09. SoundCloud YES - Roundabout by Yes (official) published on 2014-03-03T02:07:57Z. Yes - Five Per Cent For Nothing (Stereo Remix) (00:36) 2-06. 96 kHz / 24-bit PCM - Rhino/Elektra Studio Masters JRiver: plays both AIFF and FLAC formats, $50 but has a free trial period; Hardware Suggestions. flac; The Killers - When You Were Young. 2 KB 01 - Roundabout. Sweet Dreams 05. This track sourced from Mobile Fidelity Sound Lab Ultradisc II Gold CD audiophile remaster. 0 Bytes: Yes - The Definitive. Personnel: Jon Anderson :: Steve Howe :: Billy Sherwood :: Chris Squire :: Alan White :: Igor Khoroshev. And You And I 11:59 06. Owner of a Lonely Heart 6:21 05. 1kHz qobuz Released: 2017 Recorded live in various locations across the United States in February 2017. Siberian Khatru 9:0303. flac; Buddy Holly - Blue Days, Black Night (1956). flac 06 Long Distance Runaround. 2 -> Sony PCM M-10 (24bit/96kHz) Transfer: M-10 -> MacBook -> Adobe Audition CS5. Yes - House Of Yes Live From House Of Blues (2000/2019) FLAC Artist: Yes Title: House Of Yes: Live From House Of Blues Year Of Release: 2019 Label: Ear Music Classics / Vinyl Genre: Rock Quality: FLAC (tracks) Total Time: 01:50:29 Total Size: 1. 33 Gb Tracklist: CD1: The Yes Album 01. Progressive Rock band YES' discography of live and studio albums. HTTP download also available at fast speeds. File size : 435 MiB. 5 (EQ, level adjustment, fades, tracking, resample to 16/44. I'll be the roundabout The words will make you out an' out You spend the day your way Call it morning driving Through the south In an' out the valley The music,. Full Movies via Streaming Link for free. Drums, Percussion, Producer: Bill. Yes - Fragile (1971)Artist: Yes Album: Fragile Label: Atlantic. flac noma-brain_power. Artist: Yes Album: Fragile Released: 2015 Style: Progressive Rock Format: MP3 320Kbps / FLAC Size: 147 Mb. 01 - Owner of A Lonely Heart Live. Podobné fráze: roundabout the best of yes live yes, very best of cd dvd yes 2cd, yes wonderous stories the best of, yes theb> yes album flac, yes best of yes cd, nazareth the very best of flac, morrissey the very best of flac, best of yesterday today tomorrow, sandra the very best of sandra flac, don henley the very best of flac. attachment=6866 Yes 1969, 1970, 1971, 1972, 1973, 1974, 1977, 1979, 1980, 1983, 1987, 2013 Great Britain FLAC 108 12:15:24 7. 91 MB Fragile is the fourth studio album by the English progressive rock band Yes, released in November 1971 by Atlantic Records. David Sancious & Steve Stevens - South Side Of The Sky 5. They had previously played And You & I and Siberian Khatru on the first US leg of the tour and now they were kicking off a 2-week mini tour of the UK at the Crystal Palace Garden Party. The words will make you out 'n' out. YES: THE STEVEN WILSON REMIXES will be available on 29th June as a five album set. The fourth studio album by British prog-rock legends Yes stands among the band's greatest and most commercially successful work.